Hilo de Yowu Entertainmen. NUEVA LICENCIA ANIME: BTOOOM!

160, 61, 62, 63, 64
Comparto un unboxing (más bien, el único unboxing por existe por el momento) de la edición en bluray de BTOOOM! de Jonu Media:
https://www.youtube.com/watch?v=nBvTCOZQIj0

En el vídeo no sólo se muestra el unboxing, sino que el autor explica la robustez de la edición y su encolamiento, además de mostrar los menus de los bluray y los extras.

El autor de dicho vídeo ha confirmado que la resolución de la imagen es Full HD (1080p), que los audios son realmente DTS-HD y que cada bluray tiene una capacidad total de 25GB (lo cual era previsible). Afirma además que el salto respecto a al edición en DVD (la cual también posee) es más que notorio.

Por otro lado, he estado investigando y los extras presentes en la edición de Jonu son todos los que existen en las versiones extranjeras, igualando en este caso a la edición estadounidense, que es la más completa:
https://www.blu-ray.com/movies/BTOOOM-Complete-Collection-Blu-ray/83874/#Review

En este caso, la edición española supera a sus hermanas europeas, mismamente la edición francesa denominada "integral", no posee extra alguno. Por ello aunque los extras no sean numerosos ni muy destacables, es meritorio que Jonu haya ofrecido la edición más completa que existe a día de hoy de este anime, lo cual se agradece. Espero que esta sea la tónica imperante en el resto de sus ediciones.

Sabiendo todo esto, ahora sólo me queda esperar al Black Friday a ver si la serie es rebajada, para así poder adquirirla.

¡Saludos!
Aprovechando el Black Friday, adquirí la serie de BTOOOM! en bluray, con lo cual voy a compartir información sobre la misma. En primer lugar compartiré varias fotografías de la edición, luego compartiré datos técnicos y finalmente compartiré capturas directas de los dos blurays.

Tuve que reclamar en dos ocasiones a Amazon un cambio de esta edición, ya que me llegaba completamente abollada. A la tercera ha ido la vencida, al menos al 95%, como explicaré posteriormente.
Imagen
Esta es la portada de la edición.

Imagen
El lado por el que se saca el digipack.

Imagen
El dorso de la edición.

Imagen
La contraportada con una breve sinopsis de la serie, junto con datos técnicos y contenidos de la edición.

Imagen
Este es el único problema que he tenido con esta edición, la parte superior de la caja estaba abollada hacia arriba, con lo cual opté por intentar aplanarla, a ver si el resultado era aceptable (a fin de cuentas no sólo cansa estar reclamando cada dos por tres, sino que además nadie me garantizaba que en caso de enviarme otra edición, no estuviera en peores condiciones). Al final el resultado ha sido bastante bueno y sólo se nota la marca de la abolladura si se mira a contraluz.

Imagen
Estas son las ilustraciones que decoran la parte trasera del digipack.

Imagen
Este es el interior del digipack, donde están presentes los dos blurays que contienen el anime y los extras y un librito con una galería de imágenes.

Imagen
La decoración de los dos discos en más detalle.

Imagen
Las ilustraciones presentes en el interior del digipack si se quitan los blurays y el librito.

Imagen
Imagen
Imagen
Ilustraciones internas con más detalle.

Imagen
Portada del librito con imágenes y diseños del anime (las mismas están ampliadas en los extras presentes en los blurays). Es la misma que la de la caja de cartón que recubre el digipack.

Imagen
Un ejemplo del tipo de imágenes que contiene este librito.

Datos técnicos del primer bluray (episodios 1-6):
DISC INFO:

Disc Title:     BDROM
Disc Size:      23,925,422,080 bytes
Protection:     AACS(v65)
BD-Java:        No
BDInfo:         0.5.8.7 (compatible layout created by DVDFab 11.0.0.7)

PLAYLIST REPORT:

Name:                   00016.MPLS 
Length:                 2:26:25.776 (h:m:s.ms)
Size:                   22,752,835,584 bytes
Total Bitrate:          20.72 Mbps

VIDEO:

Codec                   Bitrate             Description     
-----                   -------             -----------     
MPEG-4 AVC Video        16832 kbps          1080p / 23.976 fps / 16:9 / High Profile 4.1 /

AUDIO:

Codec                           Language        Bitrate         Description     
-----                           --------        -------         -----------     
DTS-HD Master Audio             Spanish         1239 kbps       2.0 / 48 kHz / 1239 kbps / 16-bit (DTS Core: 2.0 / 48 kHz / 896 kbps / 16-bit)
DTS-HD Master Audio             Japanese        1228 kbps       2.0 / 48 kHz / 1228 kbps / 16-bit (DTS Core: 2.0 / 48 kHz / 896 kbps / 16-bit)

SUBTITLES:

Codec                           Language        Bitrate         Description     
-----                           --------        -------         -----------     
Presentation Graphics           Spanish         28.867 kbps                     

FILES:

Name            Time In         Length          Size            Total Bitrate   
----            -------         ------          ----            -------------   
00000.M2TS      0:00:00.000     0:24:24.045     4,204,603,392   22,975 kbps     
00001.M2TS      0:24:24.045     0:24:24.463     4,015,534,080   21,935 kbps     
00002.M2TS      0:48:48.508     0:24:24.463     3,631,116,288   19,835 kbps     
00003.M2TS      1:13:12.971     0:24:23.879     3,638,544,384   19,884 kbps     
00004.M2TS      1:37:36.850     0:24:24.463     3,632,302,080   19,842 kbps     
00041.M2TS      2:02:01.313     0:24:24.463     3,630,735,360   19,833 kbps     

CHAPTERS:

Number          Time In         Length          Avg Video Rate  Max 1-Sec Rate  Max 1-Sec Time  Max 5-Sec Rate  Max 5-Sec Time  Max 10Sec Rate  Max 10Sec Time  Avg Frame Size  Max Frame Size  Max Frame Time 
------          -------         ------          --------------  --------------  --------------  --------------  --------------  --------------  --------------  --------------  --------------  -------------- 
1               0:00:00.000     0:03:24.204     19,012 kbps     46,631 kbps     0:00:03.086     23,992 kbps     0:00:48.089     21,540 kbps     0:00:36.244     99,145 bytes    890,039 bytes   0:03:24.120     
2               0:03:24.204     0:07:51.470     19,007 kbps     40,861 kbps     0:09:08.005     23,930 kbps     0:10:12.486     21,368 kbps     0:07:53.806     99,089 bytes    792,261 bytes   0:04:27.684     
3               0:11:15.675     0:09:57.430     19,002 kbps     37,965 kbps     0:19:45.142     23,296 kbps     0:15:17.499     21,223 kbps     0:15:30.471     99,071 bytes    795,714 bytes   0:21:10.519     
4               0:21:13.105     0:03:10.440     18,937 kbps     37,653 kbps     0:23:43.839     24,246 kbps     0:23:43.964     21,298 kbps     0:23:48.969     98,753 bytes    782,727 bytes   0:23:54.933     
5               0:24:23.545     0:00:00.500     18,999 kbps     0 kbps          0:00:00.000     0 kbps          0:00:00.000     0 kbps          0:00:00.000     99,056 bytes    99,057 bytes    0:24:23.545     
6               0:24:24.045     0:02:56.175     17,984 kbps     44,144 kbps     0:24:27.090     22,414 kbps     0:27:00.535     20,329 kbps     0:25:14.012     93,763 bytes    811,012 bytes   0:24:26.173     
7               0:27:20.221     0:08:41.938     18,000 kbps     38,309 kbps     0:34:13.009     22,852 kbps     0:29:24.387     20,561 kbps     0:29:30.810     93,843 bytes    817,380 bytes   0:30:30.245     
8               0:36:02.159     0:07:46.048     18,028 kbps     36,619 kbps     0:43:20.306     22,374 kbps     0:36:34.984     20,484 kbps     0:41:39.288     94,007 bytes    858,456 bytes   0:38:45.489     
9               0:43:48.208     0:04:59.799     17,953 kbps     39,840 kbps     0:47:03.070     22,643 kbps     0:46:19.735     20,364 kbps     0:46:53.977     93,589 bytes    822,379 bytes   0:45:07.246     
10              0:48:48.008     0:00:00.500     17,999 kbps     0 kbps          0:00:00.000     0 kbps          0:00:00.000     0 kbps          0:00:00.000     93,843 bytes    93,844 bytes    0:48:47.966     
11              0:48:48.508     0:01:57.951     15,979 kbps     39,041 kbps     0:48:51.386     20,019 kbps     0:49:11.490     18,145 kbps     0:50:26.815     83,310 bytes    712,598 bytes   0:49:54.866     
12              0:50:46.460     0:08:02.648     16,026 kbps     35,865 kbps     0:51:40.847     20,484 kbps     0:52:16.049     18,262 kbps     0:52:19.803     83,564 bytes    830,250 bytes   0:52:25.767     
13              0:58:49.108     0:08:47.527     15,994 kbps     35,463 kbps     1:01:52.333     20,124 kbps     0:59:45.581     17,961 kbps     1:07:33.340     83,394 bytes    802,332 bytes   1:05:46.108     
14              1:07:36.635     0:05:35.835     15,966 kbps     38,039 kbps     1:08:31.398     20,077 kbps     1:08:35.402     18,205 kbps     1:08:03.162     83,239 bytes    778,996 bytes   1:12:52.201     
15              1:13:12.471     0:00:00.500     17,332 kbps     0 kbps          0:00:00.000     0 kbps          0:00:00.000     0 kbps          0:00:00.000     83,416 bytes    83,417 bytes    1:13:12.471     
16              1:13:12.971     0:02:44.372     16,020 kbps     39,224 kbps     1:13:15.641     20,099 kbps     1:15:40.327     18,127 kbps     1:15:40.327     83,525 bytes    851,398 bytes   1:15:57.177     
17              1:15:57.344     0:08:51.739     16,000 kbps     36,965 kbps     1:17:03.785     20,587 kbps     1:18:38.088     18,186 kbps     1:20:18.939     83,419 bytes    785,889 bytes   1:23:47.021     
18              1:24:49.083     0:06:25.176     16,023 kbps     34,441 kbps     1:31:09.589     20,440 kbps     1:28:43.693     18,251 kbps     1:29:38.331     83,555 bytes    783,151 bytes   1:28:42.734     
19              1:31:14.260     0:06:22.006     15,960 kbps     36,243 kbps     1:36:34.914     20,432 kbps     1:34:09.101     18,187 kbps     1:32:28.167     83,193 bytes    860,115 bytes   1:36:46.175     
20              1:37:36.267     0:00:00.583     14,857 kbps     0 kbps          0:00:00.000     0 kbps          0:00:00.000     0 kbps          0:00:00.000     83,416 bytes    83,417 bytes    1:37:36.267     
21              1:37:36.850     0:02:46.124     15,981 kbps     37,141 kbps     1:40:03.247     20,324 kbps     1:38:51.800     18,065 kbps     1:40:03.372     83,341 bytes    760,206 bytes   1:38:13.679     
22              1:40:22.975     0:03:26.247     16,024 kbps     36,508 kbps     1:40:23.934     19,979 kbps     1:41:37.132     17,967 kbps     1:41:20.574     83,561 bytes    709,170 bytes   1:41:04.183     
23              1:43:49.222     0:11:42.702     16,006 kbps     36,380 kbps     1:54:52.218     20,600 kbps     1:49:50.333     18,265 kbps     1:49:49.374     83,449 bytes    849,069 bytes   1:52:03.466     
24              1:55:31.924     0:06:28.888     15,977 kbps     30,239 kbps     1:59:18.943     19,849 kbps     1:58:11.417     17,797 kbps     2:00:07.867     83,280 bytes    734,605 bytes   1:58:07.580     
25              2:02:00.813     0:00:00.500     14,666 kbps     0 kbps          0:00:00.000     0 kbps          0:00:00.000     0 kbps          0:00:00.000     83,416 bytes    83,417 bytes    2:02:00.896     
26              2:02:01.313     0:03:23.202     16,009 kbps     39,304 kbps     2:02:04.358     20,045 kbps     2:05:07.625     18,074 kbps     2:05:07.625     83,481 bytes    712,599 bytes   2:04:32.965     
27              2:05:24.516     0:05:40.340     15,985 kbps     30,335 kbps     2:08:26.532     19,932 kbps     2:08:35.290     17,980 kbps     2:08:34.206     83,341 bytes    730,184 bytes   2:10:02.794     
28              2:11:04.856     0:08:27.506     16,026 kbps     30,578 kbps     2:14:29.978     20,214 kbps     2:18:05.694     18,069 kbps     2:17:54.432     83,552 bytes    753,893 bytes   2:16:08.076     
29              2:19:32.363     0:06:53.413     15,968 kbps     37,034 kbps     2:25:54.120     20,602 kbps     2:25:55.079     18,203 kbps     2:25:57.957     83,250 bytes    800,420 bytes   2:20:41.891     

STREAM DIAGNOSTICS:

File            PID             Type            Codec           Language                Seconds                 Bitrate                 Bytes           Packets         
----            ---             ----            -----           --------                --------------          --------------          -------------   -----           
00000.M2TS      4113 (0x1011)   0x1B            AVC                                     1464.00                 18997.9                 3,476,618,623   18,915,260     
00000.M2TS      4352 (0x1100)   0x86            DTS-HD MA       spa (Spanish)           1464.04                 1241.63                 227,224,900     1,460,484       
00000.M2TS      4353 (0x1101)   0x86            DTS-HD MA       jpn (Japanese)          1464.04                 1223.92                 223,983,160     1,447,067       
00000.M2TS      4608 (0x1200)   0x90            PGS             spa (Spanish)           1464.00                 24.685                  4,517,368       26,545         
00001.M2TS      4113 (0x1011)   0x1B            AVC                                     1464.38                 17998.7                 3,294,610,427   17,926,410     
00001.M2TS      4352 (0x1100)   0x86            DTS-HD MA       spa (Spanish)           1464.46                 1242.93                 227,528,168     1,460,131       
00001.M2TS      4353 (0x1101)   0x86            DTS-HD MA       jpn (Japanese)          1464.46                 1221.93                 223,682,812     1,443,810       
00001.M2TS      4608 (0x1200)   0x90            PGS             spa (Spanish)           1464.38                 32.113                  5,878,126       34,299         
00002.M2TS      4113 (0x1011)   0x1B            AVC                                     1464.42                 15998.4                 2,928,542,604   15,936,561     
00002.M2TS      4352 (0x1100)   0x86            DTS-HD MA       spa (Spanish)           1464.46                 1228.17                 224,826,020     1,447,506       
00002.M2TS      4353 (0x1101)   0x86            DTS-HD MA       jpn (Japanese)          1464.46                 1220.58                 223,436,088     1,443,219       
00002.M2TS      4608 (0x1200)   0x90            PGS             spa (Spanish)           1464.42                 33.162                  6,070,369       35,236         
00003.M2TS      4113 (0x1011)   0x1B            AVC                                     1463.80                 15998.8                 2,927,374,770   15,930,183     
00003.M2TS      4352 (0x1100)   0x86            DTS-HD MA       spa (Spanish)           1463.87                 1249.77                 228,688,644     1,466,911       
00003.M2TS      4353 (0x1101)   0x86            DTS-HD MA       jpn (Japanese)          1463.87                 1248.11                 228,383,776     1,469,821       
00003.M2TS      4608 (0x1200)   0x90            PGS             spa (Spanish)           1463.80                 32.151                  5,882,838       34,310         
00004.M2TS      4113 (0x1011)   0x1B            AVC                                     1464.38                 15998.8                 2,928,542,604   15,936,580     
00004.M2TS      4352 (0x1100)   0x86            DTS-HD MA       spa (Spanish)           1464.46                 1235.78                 226,219,336     1,453,154       
00004.M2TS      4353 (0x1101)   0x86            DTS-HD MA       jpn (Japanese)          1464.46                 1231.61                 225,455,584     1,452,609       
00004.M2TS      4608 (0x1200)   0x90            PGS             spa (Spanish)           1464.38                 24.604                  4,503,780       26,347         
00041.M2TS      4113 (0x1011)   0x1B            AVC                                     1464.42                 15998.4                 2,928,542,604   15,936,504     
00041.M2TS      4352 (0x1100)   0x86            DTS-HD MA       spa (Spanish)           1464.46                 1236.08                 226,274,172     1,453,599       
00041.M2TS      4353 (0x1101)   0x86            DTS-HD MA       jpn (Japanese)          1464.46                 1221.24                 223,556,552     1,441,925       
00041.M2TS      4608 (0x1200)   0x90            PGS             spa (Spanish)           1464.42                 26.488                  4,848,689       28,508         


Datos técnicos del segundo bluray (episodios 7-12):
DISC INFO:

Disc Title:     BDROM
Disc Size:      24,662,112,256 bytes
Protection:     AACS(v65)
BD-Java:        No
BDInfo:         0.5.8.7 (compatible layout created by DVDFab 11.0.0.7)

PLAYLIST REPORT:

Name:                   00016.MPLS 
Length:                 2:26:09.761 (h:m:s.ms)
Size:                   21,504,608,256 bytes
Total Bitrate:          19.62 Mbps

VIDEO:

Codec                   Bitrate             Description     
-----                   -------             -----------     
MPEG-4 AVC Video        15998 kbps          1080p / 23.976 fps / 16:9 / High Profile 4.1 /

AUDIO:

Codec                           Language        Bitrate         Description     
-----                           --------        -------         -----------     
DTS-HD Master Audio             Spanish         1247 kbps       2.0 / 48 kHz / 1247 kbps / 16-bit (DTS Core: 2.0 / 48 kHz / 896 kbps / 16-bit)
DTS-HD Master Audio             Japanese        1083 kbps       2.0 / 48 kHz / 1083 kbps / 16-bit (DTS Core: 2.0 / 48 kHz / 768 kbps / 16-bit)

SUBTITLES:

Codec                           Language        Bitrate         Description     
-----                           --------        -------         -----------     
Presentation Graphics           Spanish         29.427 kbps                     

FILES:

Name            Time In         Length          Size            Total Bitrate   
----            -------         ------          ----            -------------   
00000.M2TS      0:00:00.000     0:24:24.463     3,589,705,728   19,609 kbps     
00001.M2TS      0:24:24.463     0:24:24.463     3,578,234,880   19,547 kbps     
00002.M2TS      0:48:48.926     0:24:24.463     3,597,692,928   19,653 kbps     
00003.M2TS      1:13:13.389     0:24:23.462     3,589,957,632   19,624 kbps     
00004.M2TS      1:37:36.851     0:24:24.463     3,597,527,040   19,652 kbps     
00041.M2TS      2:02:01.314     0:24:08.447     3,551,490,048   19,615 kbps     

CHAPTERS:

Number          Time In         Length          Avg Video Rate  Max 1-Sec Rate  Max 1-Sec Time  Max 5-Sec Rate  Max 5-Sec Time  Max 10Sec Rate  Max 10Sec Time  Avg Frame Size  Max Frame Size  Max Frame Time 
------          -------         ------          --------------  --------------  --------------  --------------  --------------  --------------  --------------  --------------  --------------  -------------- 
1               0:00:00.000     0:02:29.149     16,020 kbps     39,199 kbps     0:00:02.794     19,846 kbps     0:02:12.215     18,046 kbps     0:02:09.504     83,567 bytes    924,198 bytes   0:02:29.023     
2               0:02:29.149     0:08:10.907     16,015 kbps     34,566 kbps     0:03:01.097     20,344 kbps     0:03:02.056     18,276 kbps     0:05:12.020     83,481 bytes    915,195 bytes   0:08:21.542     
3               0:10:40.056     0:05:41.132     15,973 kbps     32,848 kbps     0:15:40.898     19,886 kbps     0:15:23.631     17,916 kbps     0:14:40.921     83,277 bytes    827,969 bytes   0:13:02.698     
4               0:16:21.188     0:08:02.773     15,992 kbps     32,925 kbps     0:22:39.107     20,236 kbps     0:17:51.153     18,108 kbps     0:19:48.562     83,375 bytes    807,736 bytes   0:17:50.194     
5               0:24:23.962     0:00:00.500     14,666 kbps     0 kbps          0:00:00.000     0 kbps          0:00:00.000     0 kbps          0:00:00.000     83,416 bytes    83,417 bytes    0:24:24.045     
6               0:24:24.463     0:03:07.937     15,987 kbps     38,949 kbps     0:24:27.549     19,956 kbps     0:27:15.592     18,075 kbps     0:27:15.592     83,350 bytes    749,792 bytes   0:24:27.340     
7               0:27:32.400     0:07:50.720     16,027 kbps     33,388 kbps     0:27:33.485     19,915 kbps     0:28:11.064     18,112 kbps     0:33:44.772     83,576 bytes    747,715 bytes   0:28:10.105     
8               0:35:23.121     0:07:07.260     15,998 kbps     30,947 kbps     0:38:35.521     19,784 kbps     0:41:50.633     18,000 kbps     0:39:21.067     83,406 bytes    723,703 bytes   0:40:06.529     
9               0:42:30.381     0:06:18.044     15,964 kbps     33,814 kbps     0:45:36.567     20,023 kbps     0:45:40.487     17,872 kbps     0:45:45.242     83,229 bytes    904,166 bytes   0:47:44.361     
10              0:48:48.425     0:00:00.500     17,332 kbps     0 kbps          0:00:00.000     0 kbps          0:00:00.000     0 kbps          0:00:00.000     83,416 bytes    83,417 bytes    0:48:48.425     
11              0:48:48.926     0:03:02.182     16,017 kbps     39,158 kbps     0:48:51.553     19,992 kbps     0:51:34.174     18,068 kbps     0:51:34.174     83,524 bytes    854,366 bytes   0:51:51.024     
12              0:51:51.108     0:06:11.370     16,030 kbps     35,841 kbps     0:57:38.329     20,280 kbps     0:57:04.003     18,162 kbps     0:53:14.566     83,567 bytes    766,178 bytes   0:57:27.610     
13              0:58:02.479     0:08:58.621     15,997 kbps     36,796 kbps     0:59:59.721     20,559 kbps     0:58:41.684     18,223 kbps     0:59:24.519     83,409 bytes    755,391 bytes   0:59:32.235     
14              1:07:01.100     0:06:11.788     15,958 kbps     35,244 kbps     1:07:59.658     20,519 kbps     1:08:00.618     18,114 kbps     1:10:29.850     83,189 bytes    774,899 bytes   1:11:07.388     
15              1:13:12.888     0:00:00.500     14,666 kbps     0 kbps          0:00:00.000     0 kbps          0:00:00.000     0 kbps          0:00:00.000     83,416 bytes    83,417 bytes    1:13:12.888     
16              1:13:13.389     0:03:14.027     16,002 kbps     39,262 kbps     1:13:14.973     20,129 kbps     1:16:10.482     18,119 kbps     1:16:10.482     83,468 bytes    809,269 bytes   1:14:32.676     
17              1:16:27.416     0:07:39.250     16,017 kbps     35,748 kbps     1:17:32.356     20,508 kbps     1:19:24.634     18,193 kbps     1:17:33.315     83,497 bytes    877,982 bytes   1:18:31.164     
18              1:24:06.666     0:05:59.150     16,013 kbps     34,320 kbps     1:24:42.368     20,218 kbps     1:29:42.668     18,128 kbps     1:28:37.979     83,475 bytes    805,745 bytes   1:28:13.830     
19              1:30:05.817     0:07:30.533     15,965 kbps     36,067 kbps     1:35:51.078     20,051 kbps     1:31:35.573     18,214 kbps     1:35:52.037     83,237 bytes    864,507 bytes   1:32:50.648     
20              1:37:36.350     0:00:00.500     14,666 kbps     0 kbps          0:00:00.000     0 kbps          0:00:00.000     0 kbps          0:00:00.000     83,416 bytes    83,417 bytes    1:37:36.433     
21              1:37:36.851     0:03:06.186     16,014 kbps     39,280 kbps     1:37:39.770     20,093 kbps     1:37:53.200     18,110 kbps     1:40:23.392     83,530 bytes    922,538 bytes   1:37:38.894     
22              1:40:43.037     0:07:30.449     16,008 kbps     33,886 kbps     1:46:08.653     20,519 kbps     1:46:17.621     18,267 kbps     1:46:23.418     83,451 bytes    795,621 bytes   1:44:21.171     
23              1:48:13.487     0:07:14.642     16,003 kbps     34,739 kbps     1:53:00.690     19,917 kbps     1:50:53.146     17,958 kbps     1:50:53.146     83,428 bytes    803,913 bytes   1:48:52.901     
24              1:55:28.129     0:06:32.683     15,973 kbps     34,007 kbps     1:57:59.072     19,782 kbps     1:58:02.909     18,275 kbps     1:56:37.407     83,277 bytes    813,714 bytes   2:00:04.280     
25              2:02:00.813     0:00:00.500     14,666 kbps     0 kbps          0:00:00.000     0 kbps          0:00:00.000     0 kbps          0:00:00.000     83,416 bytes    83,417 bytes    2:02:00.896     
26              2:02:01.314     0:05:08.933     16,003 kbps     34,076 kbps     2:04:03.894     19,967 kbps     2:03:53.843     18,051 kbps     2:05:58.300     83,433 bytes    760,963 bytes   2:06:18.279     
27              2:07:10.247     0:05:56.355     16,016 kbps     31,888 kbps     2:07:49.161     19,937 kbps     2:08:29.576     17,888 kbps     2:08:30.536     83,523 bytes    773,223 bytes   2:07:49.161     
28              2:13:06.603     0:05:08.683     16,012 kbps     33,458 kbps     2:16:07.200     20,364 kbps     2:14:59.758     18,070 kbps     2:14:46.203     83,480 bytes    737,073 bytes   2:14:15.839     
29              2:18:15.287     0:07:54.474     15,970 kbps     34,828 kbps     2:24:35.667     19,887 kbps     2:24:11.351     18,124 kbps     2:25:49.824     83,257 bytes    829,510 bytes   2:18:50.989     

STREAM DIAGNOSTICS:

File            PID             Type            Codec           Language                Seconds                 Bitrate                 Bytes           Packets         
----            ---             ----            -----           --------                --------------          --------------          -------------   -----           
00000.M2TS      4113 (0x1011)   0x1B            AVC                                     1464.42                 15998.4                 2,928,542,604   15,936,625     
00000.M2TS      4352 (0x1100)   0x86            DTS-HD MA       spa (Spanish)           1464.46                 1242.54                 227,456,808     1,460,106       
00000.M2TS      4353 (0x1101)   0x86            DTS-HD MA       jpn (Japanese)          1464.46                 1082.64                 198,185,664     1,219,336       
00000.M2TS      4608 (0x1200)   0x90            PGS             spa (Spanish)           1464.42                 28.687                  5,251,179       30,774         
00001.M2TS      4113 (0x1011)   0x1B            AVC                                     1464.42                 15998.4                 2,928,542,604   15,936,574     
00001.M2TS      4352 (0x1100)   0x86            DTS-HD MA       spa (Spanish)           1464.46                 1237.08                 226,455,580     1,451,193       
00001.M2TS      4353 (0x1101)   0x86            DTS-HD MA       jpn (Japanese)          1464.46                 1029.18                 188,399,300     1,165,935       
00001.M2TS      4608 (0x1200)   0x90            PGS             spa (Spanish)           1464.42                 31.397                  5,747,369       33,396         
00002.M2TS      4113 (0x1011)   0x1B            AVC                                     1464.42                 15998.4                 2,928,542,604   15,936,579     
00002.M2TS      4352 (0x1100)   0x86            DTS-HD MA       spa (Spanish)           1464.46                 1251.11                 229,024,852     1,470,323       
00002.M2TS      4353 (0x1101)   0x86            DTS-HD MA       jpn (Japanese)          1464.46                 1116.31                 204,348,244     1,253,699       
00002.M2TS      4608 (0x1200)   0x90            PGS             spa (Spanish)           1464.42                 25.97                   4,753,803       27,821         
00003.M2TS      4113 (0x1011)   0x1B            AVC                                     1463.42                 15998.4                 2,926,540,604   15,925,580     
00003.M2TS      4352 (0x1100)   0x86            DTS-HD MA       spa (Spanish)           1463.46                 1246.5                  228,025,036     1,467,400       
00003.M2TS      4353 (0x1101)   0x86            DTS-HD MA       jpn (Japanese)          1463.46                 1083.43                 198,194,776     1,219,643       
00003.M2TS      4608 (0x1200)   0x90            PGS             spa (Spanish)           1463.42                 33.19                   6,071,343       35,561         
00004.M2TS      4113 (0x1011)   0x1B            AVC                                     1464.38                 15998.8                 2,928,542,604   15,936,601     
00004.M2TS      4352 (0x1100)   0x86            DTS-HD MA       spa (Spanish)           1464.46                 1258.45                 230,368,796     1,479,338       
00004.M2TS      4353 (0x1101)   0x86            DTS-HD MA       jpn (Japanese)          1464.46                 1104.25                 202,141,828     1,239,716       
00004.M2TS      4608 (0x1200)   0x90            PGS             spa (Spanish)           1464.38                 29.668                  5,430,594       31,904         
00041.M2TS      4113 (0x1011)   0x1B            AVC                                     1448.41                 15998.3                 2,896,510,604   15,762,166     
00041.M2TS      4352 (0x1100)   0x86            DTS-HD MA       spa (Spanish)           1448.44                 1245.42                 225,489,184     1,447,151       
00041.M2TS      4353 (0x1101)   0x86            DTS-HD MA       jpn (Japanese)          1448.44                 1083.85                 196,235,312     1,209,399       
00041.M2TS      4608 (0x1200)   0x90            PGS             spa (Spanish)           1448.41                 27.634                  5,003,084       29,600         


A la hora de realizar las capturas directas de los blurays, opté en primer lugar por extraerlas de episodios diferentes, para que así sean más representativas de la calidad de imagen de esta edición. Además he capturado tanto planos cortos, como medios y alejados, con presencia de luz natural y oscuridad, para así representar en la mejor medida de lo posible la calidad visual de la edición:
Imagen

Imagen

Imagen

Imagen

Imagen

Imagen

Imagen

Imagen

Imagen

Imagen

Imagen

Como habréis podido apreciar, esta edición tiene demasiada compresión, con un bitrate en el primer bluray de 20 Mbps y en el segundo de 19 Mbps. Esto se traduce en una calidad de imagen cuanto menos mejorable, lo cual se puede apreciar a la perfección cuando se compara un ripeo de la red a 720p y capturas directas de estas blurays a 1080p, apreciando que la diferencia es mínima:
https://diff.pics/Dsn2shLRzN1Y/1

Los extras se reparten entre ambos blurays y sólo están subtituladas al castellano las promos japonesas (que anunciaban la emisión de la serie en televisión y el lanzamiento de los diversos blurays). Hecho en falta que hubieran subtitulado tanto el videoclip como los Digest, no era mucho texto y hubiera sido un bonito detalle.

Por otro lado me gustaría destacar un dato muy interesante y que revela una mentira por parte de Jonu. Muchos recordareis como a finales del año 2017, en el salón del manga de Barcelona, José Luis Puertas anunció que Yowu editaría en bluray de BTOOOM!
https://www.youtube.com/watch?v=2clW6iMASaQ&feature=youtu.be&t=33m26s

Casi un año después, fue cuando la renacida Jonu anunció en el pasado Septiembre que finalmente la serie sería editada en bluray.

Sin embargo, cuando uno se fija en las fechas de los archivos presentes en ambos blurays, se encuentra con un dato muy curioso y revelador. En el primer bluray los archivos constan a fecha de 14/01/2016, mientras que en el segundo a fecha de 08/02/2016. Esto significa que esos blurays fueron grabados hace casi dos años, antes siquiera de que la por entonces Yowu anunciara en el salón del manga de 2017, la edición de BTOOOM! en bluray. Con lo cual no es cierto que llevaran a cabo esta edición de manera reciente, la misma ya existe desde hace casi dos años... La pregunta es, ¿porqué tardaron casi dos años en ponerla a la venta? ¿Para así disponer del tiempo necesario para recuperar la marca de Jonu Media y lavar su imagen? Como detalle, cuando uno introduce el primer bluray, el logo que aparece en pantalla es el de Yowu, no el de Jonu, lo que confirma esta historia.

En resumen: es una edición sencilla, con un cartón como el que acostumbraba Selecta en el pasado, con una elevada compresión a mi juicio (lo que se traduce en una calidad de imagen mejorable para ser 1080p) y que existe desde hace dos años. Lo positivo es que la compré con un 50% de descuento, que es la edición occidental que más extras incluye junto con la de USA y que el librito posee un papel de buena calidad.

Personalmente me ha decepcionado un poco esta edición, si hubieran utilizado discos de 50GB (como parece ser que están haciendo en otras ediciones), el resultado hubiera sido mucho mejor.

¡Saludos!
@Serkenobi excelente análisis de la edición, esperemos que la comprensión no se vuelva a repetir en futuras series.
32_Años_De_Hipoteca escribió:@Serkenobi excelente análisis de la edición, esperemos que la comprensión no se vuelva a repetir en futuras series.

¡Gracias @32_Años_De_Hipoteca ! Me alegro que el análisis te haya resultado interesante y útil.

Al parecer en la última edición que han puesto a la venta, han utilizado discos de 50 GB. Espero que esa sea la tónica habitual a partir de ahora.

¡Saludos!
160, 61, 62, 63, 64